Tvoj účet nieje VIP.
Preto sú tvoje funkcie a možnosti značne obmedzené.
Pre aktiváciu VIP klikni sem.

Hitlerovi falzifikatori / Hitlers Forgers (2008)(CZ)[TVRip] = CSFD 75% | kgspringshomes.com

Cz-SkTorrent open Tracker, na volné zdielanie súborov. Pridajte sa k nasej komunite a získajte pristup k tisícom torrentov.

  • vysoká rýchlost
  • úplne zdarma
  • prevazne Slovenska a Ceska scena
  • ste tu s nami uz 5 rokov - Dakujeme
  • Vitaj Guest (Login) Ako stahovat
    torrenty?
    Torrenty:
    v1 textová
    v2 obrázková
    v3 online filmy
    Ako sa stat
    Uploaderom
    Online
    Filmy
    Forum
    Pravidlá
    BitTorrent
    klient
    Meno: Heslo:
    Zaregistrovat
    Po zaregistrovaní mozte volne stahovat
    Zabudol som heslo

    Torrent's details
    Hitlerovi falzifikatori / Hitlers Forgers (2008)(CZ)[TVRip] = CSFD 75% Názov:Hitlerovi falzifikatori / Hitlers Forgers (2008)(CZ)[TVRip] = CSFD 75% Hodnocení:N/A Stiahnut
    Pozriet Online
    Kategória:Dokument Velikost:395.6 MB BitTorrent klient
    Pridaný: Súbory:
    Skontrolován:2013-10-13 Peerov:0 (Seed: 0, Leech: 0)
    Zaner:Dokumentarny Uploader:Uvidis, az ked budes
    VIP
    Kúp nám Pivo 1,10€

    Kúp nám Pivo
    Podporte nas na Facebooku !
    Pridaj do zalozky
    Pridaj do zalozky




    Během druhé světové války měl Adolf Hitler v plánu uvést do oběhu velké množství padělaných britských bankovek, aby oslabil britské hospodářství. Za tím účelem byli z vězňů v koncentračních táborech vybráni nejnadanější tiskaři, typografové, rytci a malíři. Po překonáních několika závažných počátečních těžkostí vytiskli přibližně 140 milionů dokonale padělaných britských bankovek. Padělky se však do oběhu nikdy nedostaly. Po příchodu americké armády a následné kapitulaci Německa byly padělané peníze i tiskařské lisy zničeny, aby po celé operaci nezůstaly žádné stopy. Dokument diváka seznámí s vývojem tohoto plánu a jeho zaváděním.





    Jazyk: CZ
    Titulky: NE
    Rok vydání: 2008
    Délka: 54 min.
    ČSFD: http://www.csfd.cz/film/287858-hitlerovi-falzifikatori/

    Media Info
    Format                                   : AVI
    Format/Info: Audio Video Interleave
    File size: 396 MiB
    Duration: 54mn 17s
    Overall bit rate: 1 019 Kbps
    Writing application: Lavf51.12.1

    Video
    ID: 0
    Format: xvid
    Codec ID: xvid
    Duration: 54mn 17s
    Bit rate: 878 Kbps
    Width: 640 pixels
    Height: 360 pixels
    Display aspect ratio: 16:9
    Frame rate: 25.000 fps
    Bits/(Pixel*Frame): 0.152
    Stream size: 341 MiB (86%)

    Audio
    ID: 1
    Format: MPEG Audio
    Format version: Version 1
    Format profile: Layer 3
    Mode: Joint stereo
    Mode extension: MS Stereo
    Codec ID: 55
    Codec ID/Hint: MP3
    Duration: 54mn 17s
    Bit rate mode: Constant
    Bit rate: 128 Kbps
    Channel(s): 2 channels
    Sampling rate: 48.0 KHz
    Compression mode: Lossy
    Stream size: 49.7 MiB (13%)
    Alignment: Aligned on interleaves
    Interleave, duration: 24 ms (0.60 video frame)
    Writing library: LAME3.97





    + Pridaj vlastnu verziu tohto torrentu +


    Upozornenie:
    Ziadny zo zobrazených súborov sa nenachádza na tomto serveri. Server slúzi len k síreniu vlastnorucne vytvorených aplikácií, videí, hudby ai. Autori stránok nenesú ziadnu zodpovednost za zverejnené odkazy, komentáre a obsah súborov. Vsetky komentáre, odkazy, súbory ktoré by svojou povahou mohli byt v rozpore zo zákonmi sem vkladáte na vlastnú zodpovednost. Autori stránok si vyhradzujú právo cenzúry odkazov, komentárov príp. súborov, ktoré by svojou povahou mohli byt v rozpore zo zákonmi a dobrými mravmi. Dodrzujte pravidlá!


    No comments...


    Back

    Na serveru se nenalézají zádne soubory. Za odkazy jsou výhradně zodpovědní uzivatelé a návstěvníci tohoto trackeru. Administrátor není zodpovědný za pridaný obsah ani za skody zpusobené uzivateli. Rozsirovat stránku nebo její obsah bez souhlasu ownera je zakázano. Nesmíte pouzívat tuto webovou stránku pro distribuovaní nebo download zádného materiálu pokud nemáte povolení od príslusného vlastníka práv. Uzivatelé jsou zodpovědní za dodrzování těchto pravidel a podmínek. Owner má právo kdykoliv změnit pravidla tohoto trackeru.

    [ Script trval: 0.022 sec. ] - [ GZIP: enabled ]
    BtiTracker (1.4.8) by Btiteam
    Je zhruba 22:36

    TOPlist