Tvoj účet nieje VIP.
Preto sú tvoje funkcie a možnosti značne obmedzené.
Pre aktiváciu VIP klikni sem.

Selfie from Hell (2018) = CSFD 33% | kgspringshomes.com

Cz-SkTorrent open Tracker, na volné zdielanie súborov. Pridajte sa k nasej komunite a získajte pristup k tisícom torrentov.

  • vysoká rýchlost
  • úplne zdarma
  • prevazne Slovenska a Ceska scena
  • ste tu s nami uz 5 rokov - Dakujeme
  • Vitaj Guest (Login) Ako stahovat
    torrenty?
    Torrenty:
    v1 textová
    v2 obrázková
    v3 online filmy
    Ako sa stat
    Uploaderom
    Online
    Filmy
    Forum
    Pravidlá
    BitTorrent
    klient
    Meno: Heslo:
    Zaregistrovat
    Po zaregistrovaní mozte volne stahovat
    Zabudol som heslo

    Torrent's details
    Selfie from Hell (2018) = CSFD 33% Názov:Selfie from Hell (2018) = CSFD 33% Hodnocení: Stiahnut
    Pozriet Online
    Kategória:Filmy s titulkama Velikost:1.3 GB BitTorrent klient
    Pridaný: Súbory:
    Skontrolován:2019-01-09 Peerov:22 (Seed: 22, Leech: 0)
    Zaner:Horor,Mysteriozni Uploader:Uvidis, az ked budes
    VIP
    Kúp nám Pivo 1,10€

    Kúp nám Pivo
    Podporte nas na Facebooku !
    Pridaj do zalozky
    Pridaj do zalozky






    Jazyk: EN

    Titulky: CZ (vlozene)

    Delka:75 min

    Zanr: Horor/Mysteriózní

    Rok: 2018

    http://www.csfd.cz/film/575345-selfie-from-hell/prehled/

    Mediainfo
    General
    Complete name                            : C:\Users\Roma\Downloads\Selfie from Hell-(Selfie z pekla)-2018_HC.titulky.CZ v obraze.1080p.HD.avi
    Format                                   : AVI
    Format/Info                              : Audio Video Interleave
    Format profile                           : OpenDML
    File size                                : 1.33 GiB
    Duration                                 : 1 h 15 min
    Overall bit rate                         : 2 508 kb/s
    Writing application                      : Lavf57.41.100

    Video
    ID                                       : 0
    Format                                   : AVC
    Format/Info                              : Advanced Video Codec
    Format profile                           : High@L4
    Format settings                          : CABAC / 4 Ref Frames
    Format settings, CABAC                   : Yes
    Format settings, ReFrames                : 4 frames
    Codec ID                                 : H264
    Duration                                 : 1 h 15 min
    Bit rate                                 : 2 190 kb/s
    Width                                    : 1 904 pixels
    Height                                   : 800 pixels
    Display aspect ratio                     : 2.40:1
    Frame rate mode                          : Variable
    Frame rate                               : 23.976 (24000/1001) FPS
    Color space                              : YUV
    Chroma subsampling                       : 4:2:0
    Bit depth                                : 8 bits
    Scan type                                : Progressive
    Bits/(Pixel*Frame)                       : 0.060
    Stream size                              : 1.15 GiB (87%)
    Writing library                          : x264 core 148
    Encoding settings                        : cabac=1 / ref=3 / deblock=1:0:0 / analyse=0x3:0x113 / me=hex / subme=7 / psy=1 / psy_rd=1.00:0.00 / mixed_ref=1 / me_range=16 / chroma_me=1 / trellis=1 / 8x8dct=1 / cqm=0 / deadzone=21,11 / fast_pskip=1 / chroma_qp_offset=-2 / threads=6 / lookahead_threads=1 / sliced_threads=0 / nr=0 / decimate=1 / interlaced=0 / bluray_compat=0 / constrained_intra=0 / bframes=3 / b_pyramid=2 / b_adapt=1 / b_bias=0 / direct=1 / weightb=1 / open_gop=0 / weightp=2 / keyint=250 / keyint_min=23 / scenecut=40 / intra_refresh=0 / rc_lookahead=40 / rc=abr / mbtree=1 / bitrate=2190 / ratetol=1.0 / qcomp=0.60 / qpmin=0 / qpmax=69 / qpstep=4 / ip_ratio=1.40 / aq=1:1.00

    Audio
    ID                                       : 1
    Format                                   : MPEG Audio
    Format version                           : Version 1
    Format profile                           : Layer 3
    Format settings                          : Joint stereo / MS Stereo
    Codec ID                                 : 55
    Codec ID/Hint                            : MP3
    Duration                                 : 1 h 15 min
    Bit rate mode                            : Constant
    Bit rate                                 : 320 kb/s
    Channel(s)                               : 2 channels
    Sampling rate                            : 44.1 kHz
    Compression mode                         : Lossy
    Stream size                              : 173 MiB (13%)
    Alignment                                : Aligned on interleaves
    Interleave, duration                     : 26  ms (0.63 video frame)
    Writing library                          : LAME3.99.5



    Obsah


    Hannah (Alyson Walker) se po delší době opět setkává se sestřenicí Julií (Meelah Adams), ale jak se zdá, ta není vůbec ve své kůži. Z ničeho nic upadá do hlubokého spánku, a tak Hannah začne pátrat, co za tím je. Na jejím blogu zjistí, že hledala "Temnou síť". Od přítele Trevora (Tony Giroux) zjistí, že není radno si s tímto druhem "zábavy" zahrávat. Jenže Hannah je zvídavá a chce tajemství za každou cenu rozlousknout. Jenže opravdu za to stojí položit život?! Rozhodně se nedívejte na třináctou selfie... jinak to bude dlouhá a bolestivá smrt!


    ONLINE




    Upozornenie:
    Ziadny zo zobrazených súborov sa nenachádza na tomto serveri. Server slúzi len k síreniu vlastnorucne vytvorených aplikácií, videí, hudby ai. Autori stránok nenesú ziadnu zodpovednost za zverejnené odkazy, komentáre a obsah súborov. Vsetky komentáre, odkazy, súbory ktoré by svojou povahou mohli byt v rozpore zo zákonmi sem vkladáte na vlastnú zodpovednost. Autori stránok si vyhradzujú právo cenzúry odkazov, komentárov príp. súborov, ktoré by svojou povahou mohli byt v rozpore zo zákonmi a dobrými mravmi. Dodrzujte pravidlá!




    Uploader
    09/01/2019 11.28.27
    Odpovedat

    pardon

    0
    filename

    Moderator
    09/01/2019 10.57.13
    Odpovedat

    Uploadere, výpis z Mediainfo si doplň do popisu.


    Back

    Na serveru se nenalézají zádne soubory. Za odkazy jsou výhradně zodpovědní uzivatelé a návstěvníci tohoto trackeru. Administrátor není zodpovědný za pridaný obsah ani za skody zpusobené uzivateli. Rozsirovat stránku nebo její obsah bez souhlasu ownera je zakázano. Nesmíte pouzívat tuto webovou stránku pro distribuovaní nebo download zádného materiálu pokud nemáte povolení od príslusného vlastníka práv. Uzivatelé jsou zodpovědní za dodrzování těchto pravidel a podmínek. Owner má právo kdykoliv změnit pravidla tohoto trackeru.

    [ Script trval: 0.026 sec. ] - [ GZIP: enabled ]
    BtiTracker (1.4.8) by Btiteam
    Je zhruba 23:15

    TOPlist